<?xml version="1.0" standalone="no"?>
<!DOCTYPE svg PUBLIC "-//W3C//DTD SVG 1.1//EN" "http://www.w3.org/Graphics/SVG/1.1/DTD/svg11.dtd">
<svg xmlns="http://www.w3.org/2000/svg">
<defs >
<font id="Manrope" horiz-adv-x="1131" ><font-face
    font-family="Manrope ExtraLight ExtraLight"
    units-per-em="2000"
    panose-1="0 0 0 0 0 0 0 0 0 0"
    ascent="2132"
    descent="-600"
    alphabetic="0" />
<glyph unicode=" " horiz-adv-x="400" />
<glyph unicode="!" horiz-adv-x="564" d="M240 0V128H324V0H240ZM240 360V1440H324V360H240Z" />
<glyph unicode="&quot;" horiz-adv-x="684" d="M120 1080V1440H204V1080H120ZM400 1080V1440H484V1080H400Z" />
<glyph unicode="#" horiz-adv-x="1826" d="M434 0L556 462H120L142 546H580L680 924H244L266 1008H704L818 1440H906L790 1008H1184L1298 1440H1386L1270 1008H1706L1684 924H1248L1146 546H1582L1560 462H1124L1000 0H914L1036 462H644L520 0H434ZM666 546H1060L1160
924H768L666 546Z" />
<glyph unicode="$" horiz-adv-x="1126" d="M522 -196V26H606V-196H522ZM522 1416V1640H606V1416H522ZM590 -30Q452 -30 342 17T158 152T60 358L140 374Q176 226 297 140T590 54Q770 54 878 142T986 378Q986 489 921 554T698 668L396 762Q114 851 114 1090Q114
1202 170 1287T327 1421T558 1470Q693 1470 800 1418T975 1272T1060 1050L980 1034Q966 1139 909 1218T762 1342T560 1386Q455 1386 374 1349T247 1245T200 1092Q200 998 264 934T468 826L754 738Q919 687 992 602T1066 374Q1066 251 1008 161T842 20T590 -30Z"
/>
<glyph unicode="%" horiz-adv-x="1804" d="M240 0L180 60L1564 1440L1624 1382L240 0ZM1324 -30Q1225 -30 1144 18T1013 148T964 330Q964 428 1014 510T1146 641T1324 690Q1423 690 1505 642T1635 512T1684 330Q1684 230 1636 149T1505 19T1324 -30ZM1324 54Q1399
54 1462 91T1562 192T1600 330Q1600 405 1563 468T1462 568T1324 606Q1249 606 1187 569T1086 468T1048 330Q1048 255 1086 192T1186 92T1324 54ZM480 750Q381 750 299 798T169 928T120 1110Q120 1208 170 1290T302 1421T480 1470Q579 1470 660 1422T791 1292T840
1110Q840 1010 791 929T661 799T480 750ZM480 834Q555 834 618 871T718 972T756 1110Q756 1185 719 1248T618 1348T480 1386Q405 1386 343 1349T242 1248T204 1110Q204 1035 242 972T342 872T480 834Z" />
<glyph unicode="&amp;" horiz-adv-x="1280" d="M594 -30Q473 -30 374 4T206 110Q155 164 129 234T100 380Q99 451 120 524T190 654Q225 698 270 726T364 772Q279 858 234 927T188 1102Q188 1204 237 1290T374 1422Q425 1448 479 1459T588 1470Q660 1470 732 1452T856
1396Q892 1372 921 1338T968 1264L890 1228Q864 1288 806 1328Q763 1358 708 1372T596 1386Q497 1386 414 1346Q347 1312 313 1250T278 1106Q278 1037 299 992T366 890Q390 863 418 839T474 788L992 306Q998 339 1000 367T1002 426L1000 660H1090V466Q1090 370
1083 320T1064 238L1254 62L1196 0L1024 162Q1002 122 959 86T874 26Q813 -7 741 -18T594 -30ZM590 54Q664 54 723 63T834 104Q897 143 923 174T962 226L436 706Q384 691 338 664T258 598Q222 555 206 499T190 382Q192 322 210 268T268 172Q322 111 409 83T590
54Z" />
<glyph unicode="&apos;" horiz-adv-x="364" d="M120 1080V1440H204V1080H120Z" />
<glyph unicode="(" horiz-adv-x="816" d="M664 -344Q546 -210 460 -47T327 296T280 660Q280 844 327 1024T460 1367T664 1664L726 1612Q612 1478 530 1323T404 999T360 660Q360 492 405 322T532 -5T726 -290L664 -344Z" />
<glyph unicode=")" horiz-adv-x="816" d="M152 -344L90 -290Q202 -162 284 -5T411 322T456 660Q456 831 412 999T286 1322T90 1612L152 1664Q270 1530 356 1367T489 1024T536 660Q536 476 489 296T356 -47T152 -344Z" />
<glyph unicode="*" horiz-adv-x="836" d="M226 814L158 864L320 1086L60 1170L86 1250L346 1166V1440H430V1166L690 1250L716 1170L456 1086L616 864L548 814L388 1036L226 814Z" />
<glyph unicode="+" horiz-adv-x="1160" d="M538 260V678H120V762H538V1180H622V762H1040V678H622V260H538Z" />
<glyph unicode="," horiz-adv-x="480" d="M120 -178L126 -126Q161 -128 173 -110T185 -62T186 0H120V180H240V-60Q240 -126 204 -158T120 -178Z" />
<glyph unicode="-" horiz-adv-x="840" d="M120 588V672H720V588H120Z" />
<glyph unicode="." horiz-adv-x="440" d="M160 0V120H280V0H160Z" />
<glyph unicode="/" horiz-adv-x="714" d="M504 1440H594L210 0H120L504 1440Z" />
<glyph unicode="0" horiz-adv-x="1156" d="M578 -30Q458 -30 359 29T200 188T140 408V1032Q140 1152 199 1251T358 1410T578 1470Q698 1470 797 1411T956 1252T1016 1032V408Q1016 288 957 189T798 30T578 -30ZM578 54Q675 54 755 102T884 230T932 408V1032Q932
1129 884 1209T756 1338T578 1386Q481 1386 401 1338T272 1210T224 1032V408Q224 311 272 231T400 102T578 54Z" />
<glyph unicode="1" horiz-adv-x="716" d="M392 0V1342L120 1180V1278L392 1440H476V0H392Z" />
<glyph unicode="2" horiz-adv-x="1106" d="M100 0L102 84L776 698Q868 781 895 857T922 1024Q922 1124 873 1206T742 1337T560 1386Q457 1386 375 1336T246 1204T198 1024H114Q114 1147 174 1248T336 1410T560 1470Q686 1470 787 1409T947 1246T1006 1024Q1006
942 989 875T933 750T832 636L160 24L136 84H1006V0H100Z" />
<glyph unicode="3" horiz-adv-x="1068" d="M510 -30Q404 -30 318 5T171 106T80 266L158 294Q202 173 295 112T508 54Q621 57 699 104T817 234T858 432Q858 606 762 707T504 808Q461 808 411 796T318 764L268 832L878 1418L904 1356H138V1440H936V1354L382 826L380
876Q542 914 670 868T873 709T948 432Q948 292 893 188T740 27T510 -30Z" />
<glyph unicode="4" horiz-adv-x="1154" d="M798 0V306H100V390L596 1440H688L192 390H798V840H882V390H1054V306H882V0H798Z" />
<glyph unicode="5" horiz-adv-x="1144" d="M564 -30Q450 -30 355 16T194 144T100 330L180 352Q203 261 261 195T398 92T564 56Q677 56 766 110T908 255T960 452Q960 564 905 653T760 795T564 848Q450 848 363 794T222 650L136 700L180 1440H940V1356H202L264 1414L220
702L188 748Q253 832 351 882T564 932Q695 932 804 867T978 693T1044 452Q1044 322 979 213T805 37T564 -30Z" />
<glyph unicode="6" horiz-adv-x="1240" d="M620 -30Q488 -30 379 35T205 209T140 450V990Q140 1122 204 1231T378 1405T620 1470Q752 1470 862 1404T1034 1230L962 1188Q911 1277 821 1331T620 1386Q507 1386 418 1331T276 1186T224 990V626L192 664Q255 781 368
855T620 930Q752 930 861 865T1035 691T1100 450Q1100 318 1035 209T861 35T620 -30ZM620 54Q730 54 820 107T963 250T1016 450Q1016 560 963 650T820 793T620 846Q510 846 420 793T277 650T224 450Q224 340 277 250T420 107T620 54Z" />
<glyph unicode="7" horiz-adv-x="962" d="M220 0L772 1354H80V1440H862V1354L310 0H220Z" />
<glyph unicode="8" horiz-adv-x="1118" d="M558 -30Q428 -30 330 21T176 166T120 390Q120 534 191 640T414 796V750Q284 777 218 876T152 1096Q152 1214 204 1297T348 1425T558 1470Q676 1470 767 1426T911 1298T964 1096Q964 976 901 878T706 752L698 796Q850
747 924 641T998 390Q998 260 942 166T787 21T558 -30ZM558 54Q714 54 811 141T908 390Q908 555 813 640T558 726Q399 726 304 641T208 390Q208 228 305 141T558 54ZM558 810Q699 810 786 882T874 1096Q874 1237 787 1308T558 1380Q417 1380 330 1309T242 1096Q242
955 329 883T558 810Z" />
<glyph unicode="9" horiz-adv-x="1240" d="M620 1470Q752 1470 861 1405T1035 1231T1100 990V450Q1100 318 1036 209T862 35T620 -30Q488 -30 378 36T206 210L278 252Q329 164 420 109T620 54Q733 54 822 109T964 254T1016 450V814L1048 776Q985 659 873 585T620
510Q488 510 379 575T205 749T140 990Q140 1122 205 1231T379 1405T620 1470ZM620 1386Q510 1386 420 1333T277 1190T224 990Q224 880 277 790T420 647T620 594Q730 594 820 647T963 790T1016 990Q1016 1100 963 1190T820 1333T620 1386Z" />
<glyph unicode=":" horiz-adv-x="540" d="M220 180V300H340V180H220ZM220 780V900H340V780H220Z" />
<glyph unicode=";" horiz-adv-x="560" d="M220 -178L226 -126Q261 -128 273 -110T285 -62T286 0H220V180H340V-60Q340 -126 304 -158T220 -178ZM220 960V1080H340V960H220Z" />
<glyph unicode="&lt;" horiz-adv-x="1198" d="M742 168L280 630L742 1092L798 1038L390 630L798 222L742 168Z" />
<glyph unicode="=" horiz-adv-x="1500" d="M240 836V920H1260V836H240ZM240 520V604H1260V520H240Z" />
<glyph unicode="&gt;" horiz-adv-x="1198" d="M456 168L400 222L808 630L400 1038L456 1092L918 630L456 168Z" />
<glyph unicode="?" horiz-adv-x="1008" d="M436 394Q436 478 439 534T476 654Q508 714 559 755T663 832T754 908Q792 952 805 999T818 1098Q818 1160 802 1208T754 1290Q706 1346 639 1366T500 1386Q424 1386 360 1364T254 1296Q217 1259 201 1208T184 1100H100Q100
1166 121 1234T192 1354Q252 1416 335 1443T504 1470Q594 1470 675 1443T814 1354Q864 1302 886 1238T908 1096Q908 1027 886 962T816 850Q780 811 728 776T626 701T552 614Q527 566 527 516T526 394H436ZM436 0V150H526V0H436Z" />
<glyph unicode="@" horiz-adv-x="1794" d="M904 -210Q749 -210 614 -154T377 4T218 243T160 540Q160 692 212 827T363 1067T602 1230T918 1290Q1106 1290 1245 1228T1474 1060T1603 826T1632 562Q1617 378 1534 290T1328 202Q1229 202 1165 248T1080 376L1118
368Q1088 302 1020 270T878 238Q797 238 737 272T644 368T610 510Q610 594 644 655T740 750T880 784Q945 784 1013 757T1118 658L1080 620V756H1158V466Q1158 393 1198 340T1338 286Q1393 286 1438 317T1511 406T1544 546Q1553 695 1513 816T1389 1024T1186 1159T918
1206Q758 1206 634 1150T425 999T295 785T250 538Q250 401 301 281T443 69T654 -74T910 -126Q1011 -126 1112 -98T1290 -18L1326 -86Q1229 -149 1122 -179T904 -210ZM882 324Q966 324 1017 373T1068 512Q1068 607 1016 654T882 702Q792 702 743 653T694 512Q694
418 745 371T882 324Z" />
<glyph unicode="A" horiz-adv-x="1218" d="M40 0L564 1440H654L1178 0H1088L578 1402H638L130 0H40ZM240 374V454H976V374H240Z" />
<glyph unicode="B" horiz-adv-x="1202" d="M140 0V1440H686Q790 1440 878 1396T1019 1271T1072 1086Q1072 972 1006 877T832 742L828 790Q971 744 1057 643T1144 388Q1144 265 1088 179T937 46T724 0H140ZM224 84H684Q788 84 871 119T1003 220T1052 380Q1052 474
1008 550T889 672T724 718H224V84ZM224 800H686Q767 800 834 839T942 944T982 1092Q982 1212 897 1285T686 1358H224V800Z" />
<glyph unicode="C" horiz-adv-x="1400" d="M706 -30Q491 -30 348 66T132 331T60 720Q60 940 132 1109T347 1374T706 1470Q958 1470 1112 1339T1320 988L1232 968Q1184 1159 1053 1272T706 1386Q521 1386 399 1301T214 1066T150 720Q148 525 210 375T396 140T706
54Q921 54 1052 168T1232 472L1320 452Q1266 233 1112 102T706 -30Z" />
<glyph unicode="D" horiz-adv-x="1304" d="M140 0V1440H562Q588 1440 645 1439T754 1430Q913 1407 1017 1308T1173 1057T1224 720Q1224 535 1173 383T1018 132T754 10Q703 3 645 2T562 0H140ZM230 84H562Q610 84 658 87T740 96Q882 120 968 205T1094 423T1134
720Q1134 884 1095 1016T969 1234T740 1344Q707 1350 657 1353T562 1356H230V84Z" />
<glyph unicode="E" horiz-adv-x="1120" d="M140 0V1440H1020V1356H224V762H900V678H224V84H1020V0H140Z" />
<glyph unicode="F" horiz-adv-x="980" d="M140 0V1440H940V1356H224V762H820V678H224V0H140Z" />
<glyph unicode="G" horiz-adv-x="1374" d="M706 -30Q545 -30 424 25T222 180T101 417T60 720Q60 940 132 1108T347 1372T706 1468Q912 1468 1049 1372T1244 1122L1162 1088Q1110 1223 993 1303T706 1384Q521 1384 399 1300T214 1065T150 720Q148 525 210 375T396
140T706 54Q891 54 1005 127T1171 332T1224 636H840V720H1310Q1313 692 1313 670T1314 634Q1314 446 1251 296T1054 58T706 -30Z" />
<glyph unicode="H" horiz-adv-x="1320" d="M140 0V1440H224V762H1096V1440H1180V0H1096V678H224V0H140Z" />
<glyph unicode="I" horiz-adv-x="404" d="M160 0V1440H244V0H160Z" />
<glyph unicode="J" horiz-adv-x="878" d="M358 -28Q228 -28 129 48T0 250L86 270Q109 179 183 118T362 56Q427 56 492 86T596 186Q623 236 627 291T632 424V1440H716V424Q716 369 715 322T705 230T670 142Q622 58 540 15T358 -28Z" />
<glyph unicode="K" horiz-adv-x="1116" d="M140 0V1440H224V752L936 1440H1052L346 752L1116 0H1000L224 752V0H140Z" />
<glyph unicode="L" horiz-adv-x="990" d="M160 0V1440H244V84H960V0H160Z" />
<glyph unicode="M" horiz-adv-x="1662" d="M140 0V1440H220L832 102L1438 1440H1522V2H1438V1238L878 0H784L224 1238V0H140Z" />
<glyph unicode="N" horiz-adv-x="1324" d="M140 0V1440H224L1100 150V1440H1184V0H1100L224 1292V0H140Z" />
<glyph unicode="O" horiz-adv-x="1412" d="M706 -30Q491 -30 348 66T132 331T60 720Q60 940 132 1109T347 1374T706 1470Q921 1470 1064 1374T1280 1109T1352 720Q1352 500 1280 331T1065 66T706 -30ZM706 54Q891 54 1014 139T1200 375T1262 720Q1262 915 1200
1065T1015 1301T706 1386Q521 1386 399 1301T214 1066T150 720Q148 525 210 375T396 140T706 54Z" />
<glyph unicode="P" horiz-adv-x="1162" d="M140 0V1440H670Q691 1440 713 1439T762 1432Q866 1416 942 1357T1060 1207T1102 1008Q1102 900 1061 810T943 660T762 584Q735 580 713 578T670 576H224V0H140ZM224 660H670Q687 660 710 662T758 668Q841 684 897 734T983
855T1012 1008Q1012 1089 983 1160T898 1282T758 1348Q734 1353 711 1354T670 1356H224V660Z" />
<glyph unicode="Q" horiz-adv-x="1412" d="M1274 -28L908 336L974 402L1338 38L1274 -28ZM706 -30Q491 -30 348 66T132 331T60 720Q60 940 132 1109T347 1374T706 1470Q921 1470 1064 1374T1280 1109T1352 720Q1352 500 1280 331T1065 66T706 -30ZM706 54Q891
54 1014 139T1200 375T1262 720Q1262 915 1200 1065T1015 1301T706 1386Q521 1386 399 1301T214 1066T150 720Q148 525 210 375T396 140T706 54Z" />
<glyph unicode="R" horiz-adv-x="1222" d="M140 0V1440H670Q691 1440 713 1439T762 1432Q866 1416 942 1357T1060 1207T1102 1008Q1102 854 1018 738T790 590L774 576H224V0H140ZM1042 0L758 586L830 640L1142 0H1042ZM224 660H670Q687 660 710 662T758 668Q841
684 897 734T983 855T1012 1008Q1012 1089 983 1160T898 1282T758 1348Q734 1353 711 1354T670 1356H224V660Z" />
<glyph unicode="S" horiz-adv-x="1178" d="M618 -30Q472 -30 356 17T163 152T60 358L144 374Q183 226 310 140T618 54Q744 54 838 94T984 206T1036 376Q1036 449 1009 498T941 577T854 626T774 654L414 762Q336 785 280 818T187 893T134 985T116 1092Q116 1202
175 1287T341 1421T586 1470Q727 1470 839 1418T1022 1272T1112 1050L1028 1034Q1014 1139 954 1218T799 1342T586 1386Q473 1386 388 1347T254 1242T206 1094Q206 1008 252 957T366 877T494 830L792 740Q830 729 885 708T993 646T1082 541T1118 376Q1118 283 1083
208T982 80T824 -1T618 -30Z" />
<glyph unicode="T" horiz-adv-x="1180" d="M548 0V1356H20V1440H1160V1356H632V0H548Z" />
<glyph unicode="U" horiz-adv-x="1380" d="M690 -30Q530 -30 406 37T211 225T140 510V1440H224V538Q224 405 269 312T385 161T537 77T690 50Q762 50 843 76T995 160T1111 311T1156 538V1440H1240V510Q1240 348 1169 227T974 38T690 -30Z" />
<glyph unicode="V" horiz-adv-x="1158" d="M534 0L10 1440H100L578 122L1058 1440H1148L624 0H534Z" />
<glyph unicode="W" horiz-adv-x="1818" d="M452 0L40 1440H126L496 152L864 1440H952L1322 152L1690 1440H1778L1366 0H1278L908 1286L540 0H452Z" />
<glyph unicode="X" horiz-adv-x="1146" d="M20 0L526 730L32 1440H132L572 798L1014 1440H1114L620 730L1126 0H1026L572 660L120 0H20Z" />
<glyph unicode="Y" horiz-adv-x="1038" d="M478 0V612L0 1440H96L520 708L942 1440H1038L562 612V0H478Z" />
<glyph unicode="Z" horiz-adv-x="1162" d="M100 0V30L938 1356H100V1440H1062V1406L228 82H1062V0H100Z" />
<glyph unicode="[" horiz-adv-x="792" d="M280 -444V1764H612V1680H364V-360H612V-444H280Z" />
<glyph unicode="\" horiz-adv-x="714" d="M210 1440L594 0H504L120 1440H210Z" />
<glyph unicode="]" horiz-adv-x="792" d="M512 -444H180V-360H428V1680H180V1764H512V-444Z" />
<glyph unicode="^" horiz-adv-x="1324" d="M211 1010L672 1473L1135 1011L1081 955L672 1363L265 954L211 1010Z" />
<glyph unicode="_" horiz-adv-x="1320" d="M0 -192V-108H1320V-192H0Z" />
<glyph unicode="`" horiz-adv-x="914" d="M451 1620L355 1890H443L539 1620H451Z" />
<glyph unicode="a" horiz-adv-x="1084" d="M454 -30Q328 -30 245 14T121 130T80 286Q80 381 121 443T230 542T374 594Q468 613 575 627T774 652T910 668L880 648Q885 839 811 932T548 1026Q412 1026 330 966T214 780L122 804Q158 954 269 1032T552 1110Q702 1110
802 1049T938 884Q952 844 958 787T964 676V0H886V296L926 294Q883 140 755 55T454 -30ZM450 54Q567 54 656 96T801 217T872 408Q880 464 880 528T880 620L924 586Q871 581 778 573T580 551T392 516Q343 504 291 478T204 405T168 284Q168 232 194 179T281 90T450
54Z" />
<glyph unicode="b" horiz-adv-x="1152" d="M602 -30Q459 -30 359 46T207 251T154 542Q154 706 207 834T363 1036T618 1110Q763 1110 864 1035T1019 830T1072 542Q1072 380 1018 251T860 46T602 -30ZM140 0V1440H224V850H218V0H140ZM602 54Q727 54 811 118T939
292T982 542Q982 680 941 789T815 962T602 1026Q476 1026 391 964T262 793T218 542Q218 403 261 293T389 118T602 54Z" />
<glyph unicode="c" horiz-adv-x="1078" d="M574 -30Q413 -30 304 42T139 242T80 540Q83 713 139 841T305 1039T574 1110Q724 1110 841 1039T1008 842L928 808Q883 912 790 969T574 1026Q438 1026 349 965T216 794T170 540Q173 320 274 187T574 54Q693 54 785 109T926
270L1008 234Q941 104 831 37T574 -30Z" />
<glyph unicode="d" horiz-adv-x="1152" d="M550 -30Q397 -30 293 45T134 250T80 542Q80 701 133 830T287 1034T534 1110Q685 1110 788 1037T945 835T998 542Q998 381 946 252T793 46T550 -30ZM550 54Q677 54 762 118T891 292T934 542Q934 683 891 792T762 964T550
1026Q421 1026 337 963T211 790T170 542Q170 403 213 293T340 118T550 54ZM934 0V850H928V1440H1012V0H934Z" />
<glyph unicode="e" horiz-adv-x="1146" d="M574 -30Q421 -30 311 39T140 236T80 540Q80 717 139 845T309 1041T574 1110Q729 1110 839 1040T1007 837T1066 516H976V544Q970 777 867 901T574 1026Q382 1026 276 899T170 540Q170 309 276 182T574 54Q708 54 809
117T970 298L1040 258Q974 120 853 45T574 -30ZM134 516V600H1014V516H134Z" />
<glyph unicode="f" horiz-adv-x="678" d="M256 0V1202Q256 1244 261 1279T281 1345T320 1402Q344 1427 373 1442T439 1463T518 1470H658V1394H528Q434 1394 387 1349T340 1194V0H256ZM60 996V1080H658V996H60Z" />
<glyph unicode="g" horiz-adv-x="1152" d="M552 -510Q474 -510 395 -488T247 -414T128 -270L202 -220Q256 -331 354 -377T552 -424Q697 -424 778 -370T893 -208T926 60V336H934V1080H1012V60Q1012 11 1010 -35T1002 -126Q986 -257 933 -342T785 -468T552 -510ZM550
-30Q397 -30 293 45T134 250T80 542Q80 701 133 830T287 1034T534 1110Q685 1110 788 1037T945 835T998 542Q998 381 946 252T793 46T550 -30ZM550 54Q677 54 762 118T891 292T934 542Q934 683 891 792T762 964T550 1026Q421 1026 337 963T211 790T170 542Q170
403 213 293T340 118T550 54Z" />
<glyph unicode="h" horiz-adv-x="1146" d="M942 0V572Q942 688 919 772T849 912T738 995T588 1022Q489 1022 420 988T307 893T244 755T224 590L146 588Q146 773 207 886T368 1052T588 1104Q670 1104 738 1081T860 1015T951 908T1007 765T1026 588V0H942ZM140 0V1440H218V590H224V0H140Z"
/>
<glyph unicode="i" horiz-adv-x="404" d="M160 1312V1440H244V1312H160ZM160 0V1080H244V0H160Z" />
<glyph unicode="j" horiz-adv-x="450" d="M-20 -480V-394H48Q111 -394 158 -359T206 -230V1080H290V-220Q290 -358 234 -419T46 -480H-20ZM206 1312V1440H290V1312H206Z" />
<glyph unicode="k" horiz-adv-x="936" d="M140 0V1440H224V560L764 1080H890L326 540L976 0H832L224 520V0H140Z" />
<glyph unicode="l" horiz-adv-x="404" d="M160 0V1470H244V0H160Z" />
<glyph unicode="m" horiz-adv-x="1628" d="M1422 0L1424 744Q1424 879 1345 956T1150 1034Q1086 1034 1021 1005T911 907T866 718H792Q787 837 833 925T964 1061T1156 1110Q1309 1110 1408 1014T1508 750L1506 0H1422ZM140 0V1080H218V860H224V0H140ZM782 0L784
730Q784 870 707 952T506 1034Q380 1034 302 948T224 718L150 750Q150 854 197 935T326 1063T516 1110Q607 1110 687 1072T816 952T866 744L864 0H782Z" />
<glyph unicode="n" horiz-adv-x="1146" d="M942 0V572Q942 688 919 772T849 912T738 995T588 1022Q489 1022 420 988T307 893T244 755T224 590L146 588Q146 773 207 886T368 1052T588 1104Q670 1104 738 1081T860 1015T951 908T1007 765T1026 588V0H942ZM140 0V1080H218V860H224V0H140Z"
/>
<glyph unicode="o" horiz-adv-x="1148" d="M574 -30Q414 -30 304 43T137 245T80 542Q80 712 138 840T306 1039T574 1110Q735 1110 845 1038T1011 837T1068 542Q1068 371 1011 243T844 42T574 -30ZM574 54Q778 54 878 189T978 542Q978 763 878 894T574 1026Q437
1026 348 964T214 793T170 542Q170 322 272 188T574 54Z" />
<glyph unicode="p" horiz-adv-x="1152" d="M602 -30Q459 -30 359 46T207 251T154 542Q154 706 207 834T363 1036T618 1110Q763 1110 864 1035T1019 830T1072 542Q1072 380 1018 251T860 46T602 -30ZM140 -480V1080H218V230H224V-480H140ZM602 54Q727 54 811 118T939
292T982 542Q982 680 941 789T815 962T602 1026Q476 1026 391 964T262 793T218 542Q218 403 261 293T389 118T602 54Z" />
<glyph unicode="q" horiz-adv-x="1152" d="M550 -30Q397 -30 293 45T134 250T80 542Q80 701 133 830T287 1034T534 1110Q685 1110 788 1037T945 835T998 542Q998 381 946 252T793 46T550 -30ZM550 54Q677 54 762 118T891 292T934 542Q934 683 891 792T762 964T550
1026Q421 1026 337 963T211 790T170 542Q170 403 213 293T340 118T550 54ZM928 -480V230H934V1080H1012V-480H928Z" />
<glyph unicode="r" horiz-adv-x="670" d="M140 0V1080H218V822L192 856Q209 900 235 938T286 1000Q330 1043 390 1065T512 1091T620 1080V1000Q553 1015 478 1006T338 936Q281 883 258 814T229 672T224 532V0H140Z" />
<glyph unicode="s" horiz-adv-x="1028" d="M534 -28Q351 -28 230 48T80 260L166 276Q193 176 292 116T536 56Q683 56 769 119T856 290Q856 349 830 386T729 455T506 526Q352 568 267 607T147 696T112 818Q112 904 163 970T304 1073T512 1110Q631 1110 726 1071T880
961T948 798L862 782Q843 895 747 960T506 1026Q371 1028 286 971T200 822Q200 771 229 735T330 668T530 606Q692 565 782 523T909 425T946 286Q946 139 836 56T534 -28Z" />
<glyph unicode="t" horiz-adv-x="758" d="M698 0Q617 -18 538 -14T397 24T304 126Q280 179 277 233T274 358V1380H358V358Q358 288 359 245T380 164Q416 92 494 76T698 80V0ZM20 996V1080H698V996H20Z" />
<glyph unicode="u" horiz-adv-x="1146" d="M558 -24Q476 -24 408 -1T286 65T195 172T139 315T120 492V1080H204V508Q204 393 227 308T297 168T408 85T558 58Q657 58 726 92T839 187T902 325T922 490L1000 492Q1000 307 939 194T778 28T558 -24ZM928 0V220H922V1080H1006V0H928Z"
/>
<glyph unicode="v" horiz-adv-x="956" d="M432 0L40 1080H128L478 122L826 1080H916L524 0H432Z" />
<glyph unicode="w" horiz-adv-x="1488" d="M370 0L40 1080H128L414 144L700 1080H788L1074 144L1362 1080H1448L1118 0H1030L744 938L458 0H370Z" />
<glyph unicode="x" horiz-adv-x="1018" d="M20 0L460 546L30 1080H134L510 608L884 1080H988L558 546L998 0H892L510 484L126 0H20Z" />
<glyph unicode="y" horiz-adv-x="1012" d="M302 -480L512 84L514 -84L40 1080H132L556 32H492L872 1080H962L396 -480H302Z" />
<glyph unicode="z" horiz-adv-x="1054" d="M40 0V30L820 992H88V1080H974V1046L194 88H926V0H40Z" />
<glyph unicode="{" horiz-adv-x="799" d="M601 -444Q514 -444 453 -383T391 -236V450Q391 487 369 522L287 636Q280 647 280 660T287 684L369 798Q391 833 391 870V1554Q391 1641 452 1702T601 1764H709V1680H601Q549 1680 512 1644T475 1554V870Q475 803 437
750L373 660L437 570Q475 517 475 450V-236Q475 -287 512 -323T601 -360H709V-444H601Z" />
<glyph unicode="|" horiz-adv-x="444" d="M180 0V1440H264V0H180Z" />
<glyph unicode="}" horiz-adv-x="799" d="M198 -444H90V-360H198Q251 -360 287 -324T324 -236V450Q324 517 362 570L426 660L362 750Q324 803 324 870V1554Q324 1607 288 1643T198 1680H90V1764H198Q285 1764 346 1703T408 1554V870Q408 833 430 798L512 684Q520
674 520 661T512 636L430 522Q408 487 408 450V-236Q408 -321 347 -382T198 -444Z" />
<glyph unicode="~" horiz-adv-x="1252" d="M822 504Q767 504 714 524T611 571T514 618T424 639Q363 639 348 598T348 518H247Q230 583 249 636T315 720T427 752Q483 752 537 732T641 684T738 637T828 616Q880 616 900 655T904 743H1005Q1022 680 1003 626T937
538T822 504Z" />
<glyph unicode="&#xa0;" horiz-adv-x="400" />
<glyph unicode="&#xa1;" horiz-adv-x="564" d="M240 1080H324V952H240V1080ZM240 720H324V-360H240V720Z" />
<glyph unicode="&#xa2;" horiz-adv-x="1078" d="M534 -60V122Q386 131 286 205T135 403T80 690Q83 856 135 980T287 1177T534 1258V1440H618V1258Q753 1248 857 1178T1008 992L928 958Q883 1062 790 1119T574 1176Q438 1176 349 1115T216 944T170 690Q173 470
274 337T574 204Q693 204 785 259T926 420L1008 384Q945 264 847 198T618 122V-60H534Z" />
<glyph unicode="&#xa3;" horiz-adv-x="1142" d="M60 0V84H212Q269 84 309 124T350 222V1100Q350 1210 396 1293T524 1423T708 1470Q795 1470 865 1432T989 1317T1082 1122L1002 1096Q953 1246 882 1316T706 1386Q583 1386 509 1309T434 1100V84H1056V0H60ZM60
694V778H838V694H60Z" />
<glyph unicode="&#xa4;" horiz-adv-x="1244" d="M622 196Q514 196 419 237T252 350T139 518T98 722Q98 830 139 925T252 1092T419 1205T622 1246Q731 1246 826 1205T993 1092T1107 925T1148 722Q1148 613 1107 518T994 351T826 237T622 196ZM120 160L60 220L252
412L312 352L120 160ZM254 1028L60 1222L120 1280L312 1088L254 1028ZM1124 160L932 352L992 412L1184 220L1124 160ZM622 280Q744 280 844 340T1004 501T1064 720Q1064 842 1003 942T842 1102T622 1162Q500 1162 400 1103T241 943T182 720Q182 601 241 501T400
341T622 280ZM990 1028L932 1088L1124 1280L1184 1222L990 1028Z" />
<glyph unicode="&#xa5;" horiz-adv-x="1038" d="M160 512V596H880V512H160ZM160 244V328H880V244H160ZM478 0V612L0 1440H96L520 708L942 1440H1038L562 612V0H478Z" />
<glyph unicode="&#xa6;" horiz-adv-x="444" d="M180 752V1440H264V752H180ZM180 -248V440H264V-248H180Z" />
<glyph unicode="&#xa7;" horiz-adv-x="1028" d="M542 -328Q452 -328 364 -300T209 -208T120 -40L206 -24Q228 -105 284 -153T411 -222T544 -244Q621 -244 687 -217T795 -138T836 -10Q836 62 796 102T677 168T486 226Q373 257 284 289T144 374T92 518Q92 615 148
679T291 769T472 782L466 766Q346 738 263 676T180 522Q180 456 224 417T344 354T510 306Q628 276 722 243T871 151T926 -14Q926 -117 874 -187T735 -292T542 -328ZM614 232L616 256Q678 256 738 283T837 362T876 490Q876 562 836 602T717 668T526 726Q413 757
324 789T184 874T132 1018Q132 1115 188 1180T330 1277T506 1310Q611 1310 698 1270T842 1160T908 998L822 982Q805 1075 751 1128T627 1203T496 1226Q422 1226 359 1201T258 1129T220 1022Q220 956 264 917T384 854T550 806Q668 776 762 743T911 651T966 486Q966
383 916 316T786 225T614 232Z" />
<glyph unicode="&#xa8;" horiz-adv-x="960" d="M600 1680V1800H720V1680H600ZM240 1680V1800H360V1680H240Z" />
<glyph unicode="&#xa9;" horiz-adv-x="1496" d="M748 -10Q606 -10 481 43T262 191T114 411T60 678Q60 821 113 945T261 1164T481 1312T748 1366Q891 1366 1015 1313T1234 1165T1382 946T1436 678Q1436 536 1383 411T1235 192T1016 44T748 -10ZM752 260Q667 260
595 291T470 388Q418 454 401 531T384 682Q386 757 403 833T470 972Q523 1038 595 1069T756 1100Q809 1100 857 1089T950 1050Q994 1023 1029 982T1080 890L998 862Q983 895 958 926T900 978Q869 999 831 1008T754 1018Q690 1018 635 992T542 918Q505 870 491 807T476
684Q476 615 492 551T542 442Q578 393 633 368T752 342Q834 342 902 382Q934 402 957 431T996 496L1080 466Q1055 409 1021 373T956 316Q911 288 861 274T752 260ZM748 78Q872 78 980 124T1170 253T1299 445T1346 680Q1346 804 1300 912T1171 1102T980 1231T748
1278Q623 1278 514 1232T322 1103T193 912T146 680Q146 555 192 446T321 254T513 125T748 78Z" />
<glyph unicode="&#xaa;" horiz-adv-x="623" d="M264 540Q173 540 127 588T80 701Q80 765 116 803T213 860Q269 875 344 885T484 904L454 861Q460 946 431 986T322 1027Q273 1027 236 1005T185 933L100 958Q120 1029 176 1069T323 1110Q397 1110 449 1084T525 1005Q536
980 539 951T543 889V555H464V684L479 666Q448 603 395 572T264 540ZM277 615Q349 615 392 652T445 739Q453 765 453 798T454 844L488 829Q422 819 360 812T253 791Q219 781 194 761T169 702Q169 668 194 642T277 615Z" />
<glyph unicode="&#xab;" horiz-adv-x="1004" d="M802 112L460 542L802 970L864 922L560 542L864 160L802 112ZM502 112L160 542L502 970L564 922L260 542L564 160L502 112Z" />
<glyph unicode="&#xac;" horiz-adv-x="1200" d="M996 402V658H120V742H1080V402H996Z" />
<glyph unicode="&#xad;" horiz-adv-x="840" d="M120 588V672H720V588H120Z" />
<glyph unicode="&#xae;" horiz-adv-x="1210" d="M606 594Q509 594 425 630T276 730T176 878T140 1060Q140 1156 176 1240T276 1388T424 1488T606 1524Q702 1524 786 1488T934 1388T1034 1240T1070 1060Q1070 963 1034 879T934 730T786 630T606 594ZM606 678Q711
678 797 729T935 867T986 1060Q986 1165 935 1251T798 1388T606 1440Q500 1440 414 1389T276 1251T224 1060Q224 954 275 868T413 730T606 678ZM444 834V1294H648Q707 1294 752 1250T798 1146Q798 1107 775 1069T710 1012L798 834H716L636 998H516V834H444ZM516
1066H646Q676 1066 700 1089T724 1146Q724 1182 698 1204T646 1226H516V1066Z" />
<glyph unicode="&#xaf;" horiz-adv-x="960" d="M240 1680V1764H720V1680H240Z" />
<glyph unicode="&#xb0;" horiz-adv-x="900" d="M420 750Q321 750 239 798T109 928T60 1110Q60 1208 110 1290T242 1421T420 1470Q519 1470 600 1422T731 1292T780 1110Q780 1010 731 929T601 799T420 750ZM420 834Q495 834 558 871T658 972T696 1110Q696 1185
659 1248T558 1348T420 1386Q345 1386 283 1349T182 1248T144 1110Q144 1035 182 972T282 872T420 834Z" />
<glyph unicode="&#xb1;" horiz-adv-x="1200" d="M558 440V718H120V802H558V1080H642V802H1080V718H642V440H558ZM120 176V260H1080V176H120Z" />
<glyph unicode="&#xb2;" horiz-adv-x="784" d="M100 540L102 616L512 990Q566 1038 583 1082T600 1174Q600 1261 541 1321T396 1382Q337 1382 290 1353T216 1277T190 1176H106Q106 1257 144 1321T248 1423T396 1460Q478 1460 543 1422T646 1318T684 1174Q684 1119
671 1077T630 999T560 924L160 560L136 620H684V540H100Z" />
<glyph unicode="&#xb3;" horiz-adv-x="760" d="M356 520Q257 520 183 572T80 716L158 740Q182 670 235 635T356 600Q451 602 503 660T556 812Q556 908 501 966T354 1024Q329 1024 302 1018T248 1000L206 1064L590 1424L614 1362H116V1440H632V1360L290 1036L286
1090Q390 1112 470 1082T595 981T640 812Q640 725 604 660T504 557T356 520Z" />
<glyph unicode="&#xb4;" horiz-adv-x="914" d="M463 1620H375L471 1890H559L463 1620Z" />
<glyph unicode="&#xb5;" horiz-adv-x="1166" d="M140 -480V1080H224V508Q224 393 247 308T317 168T428 85T578 58Q677 58 746 92T859 187T922 325T942 490V1080H1026V0H948V174Q888 71 790 24T578 -24Q457 -24 366 25T218 168V-480H140Z" />
<glyph unicode="&#xb6;" horiz-adv-x="1162" d="M698 -282V576H612Q591 576 569 578T520 584Q416 601 340 660T222 810T180 1008Q180 1116 221 1206T339 1355T520 1432Q547 1437 569 1438T612 1440H782V-282H698ZM898 -282V1440H982V-282H898Z" />
<glyph unicode="&#xb7;" horiz-adv-x="400" d="M202 550Q168 550 144 573T120 630Q120 665 144 687T202 710Q234 710 257 688T280 630Q280 596 257 573T202 550Z" />
<glyph unicode="&#xb8;" horiz-adv-x="772" d="M360 -478Q327 -478 297 -470T240 -450L268 -376Q318 -396 354 -396Q399 -396 423 -367T448 -302Q448 -251 406 -230T314 -192L390 14H474L416 -142Q467 -163 501 -202T536 -306Q536 -378 484 -428T360 -478Z" />
<glyph unicode="&#xb9;" horiz-adv-x="612" d="M290 540V1348L120 1246V1338L290 1440H372V540H290Z" />
<glyph unicode="&#xba;" horiz-adv-x="681" d="M340 540Q219 540 150 620T80 826Q80 953 151 1031T340 1110Q462 1110 531 1031T601 826Q601 699 531 620T340 540ZM340 625Q424 625 465 681T506 826Q506 917 465 971T340 1026Q255 1026 215 971T175 826Q175 735
216 680T340 625Z" />
<glyph unicode="&#xbb;" horiz-adv-x="1004" d="M202 112L140 160L444 542L140 922L202 970L544 542L202 112ZM502 112L440 160L744 542L440 922L502 970L844 542L502 112Z" />
<glyph unicode="&#xbc;" horiz-adv-x="1864" d="M290 540V1348L120 1246V1338L290 1440H372V540H290ZM1442 0V178H1016V258L1320 900H1412L1108 258H1442V526H1524V258H1624V178H1524V0H1442ZM286 0L212 60L1306 1440L1378 1382L286 0Z" />
<glyph unicode="&#xbd;" horiz-adv-x="1762" d="M290 540V1348L120 1246V1338L290 1440H372V540H290ZM1078 0L1080 76L1490 450Q1544 498 1561 542T1578 634Q1578 721 1519 781T1374 842Q1315 842 1268 813T1194 737T1168 636H1084Q1084 717 1122 781T1226 883T1374
920Q1456 920 1521 882T1624 778T1662 634Q1662 579 1649 537T1608 459T1538 384L1138 20L1114 80H1662V0H1078ZM286 0L212 60L1306 1440L1378 1382L286 0Z" />
<glyph unicode="&#xbe;" horiz-adv-x="1894" d="M356 520Q257 520 183 572T80 716L158 740Q182 670 235 635T356 600Q451 602 503 660T556 812Q556 908 501 966T354 1024Q329 1024 302 1018T248 1000L206 1064L590 1424L614 1362H116V1440H632V1360L290 1036L286
1090Q390 1112 470 1082T595 981T640 812Q640 725 604 660T504 557T356 520ZM1592 0V178H1166V258L1470 900H1562L1258 258H1592V526H1674V258H1774V178H1674V0H1592ZM434 0L360 60L1454 1440L1526 1382L434 0Z" />
<glyph unicode="&#xbf;" horiz-adv-x="1008" d="M572 686Q572 602 569 546T532 426Q500 366 449 325T345 248T254 172Q217 129 204 81T190 -18Q190 -79 206 -127T254 -210Q302 -265 370 -285T508 -306Q585 -306 649 -284T754 -216Q792 -178 808 -127T824 -20H908Q908
-86 887 -154T816 -274Q756 -335 673 -362T504 -390Q414 -390 333 -363T194 -274Q145 -221 123 -157T100 -16Q100 53 123 118T192 230Q228 269 280 305T382 379T456 466Q482 514 482 565T482 686H572ZM572 1080V930H482V1080H572Z" />
<glyph unicode="&#xc0;" horiz-adv-x="1218" d="M558 1620L462 1890H550L646 1620H558ZM1178 0H1088L580 1402H640L130 0H40L564 1440H654L1178 0ZM978 374H242V454H978V374Z" />
<glyph unicode="&#xc1;" horiz-adv-x="1218" d="M660 1620H572L668 1890H756L660 1620ZM40 0L564 1440H654L1178 0H1088L578 1402H638L130 0H40ZM240 374V454H976V374H240Z" />
<glyph unicode="&#xc2;" horiz-adv-x="1218" d="M364 1620L564 1860H656L856 1620H756L610 1790L464 1620H364ZM40 0L564 1440H654L1178 0H1088L578 1402H638L130 0H40ZM240 374V454H976V374H240Z" />
<glyph unicode="&#xc3;" horiz-adv-x="1218" d="M748 1670Q709 1670 672 1684T598 1718T529 1751T466 1766Q423 1766 413 1737T412 1680H340Q322 1749 360 1797T468 1846Q508 1846 546 1832T620 1798T689 1765T752 1750Q790 1750 804 1778T806 1840H878Q896 1773
858 1722T748 1670ZM40 0L564 1440H654L1178 0H1088L578 1402H638L130 0H40ZM240 374V454H976V374H240Z" />
<glyph unicode="&#xc4;" horiz-adv-x="1218" d="M730 1680V1800H850V1680H730ZM370 1680V1800H490V1680H370ZM40 0L564 1440H654L1178 0H1088L578 1402H638L130 0H40ZM240 374V454H976V374H240Z" />
<glyph unicode="&#xc5;" horiz-adv-x="1218" d="M610 1560Q557 1560 513 1586T443 1656T416 1754Q416 1807 442 1851T513 1921T610 1948Q664 1948 708 1922T778 1851T804 1754Q804 1700 778 1656T708 1586T610 1560ZM610 1644Q657 1644 688 1676T720 1754Q720
1800 689 1832T610 1864Q565 1864 533 1832T500 1754Q500 1709 532 1677T610 1644ZM40 0L564 1440H654L1178 0H1088L578 1402H638L130 0H40ZM240 374V454H976V374H240Z" />
<glyph unicode="&#xc6;" horiz-adv-x="1810" d="M40 0L564 1440H870V1356H572L636 1398L130 0H40ZM240 374V454H876V374H240ZM830 0V1440H1710V1356H914V762H1590V678H914V84H1710V0H830Z" />
<glyph unicode="&#xc7;" horiz-adv-x="1400" d="M696 -478Q663 -478 633 -470T576 -450L604 -376Q654 -396 690 -396Q735 -396 759 -367T784 -302Q784 -251 742 -230T650 -192L726 14H810L752 -142Q803 -163 837 -202T872 -306Q872 -378 820 -428T696 -478ZM706
-30Q491 -30 348 66T132 331T60 720Q60 940 132 1109T347 1374T706 1470Q958 1470 1112 1339T1320 988L1232 968Q1184 1159 1053 1272T706 1386Q521 1386 399 1301T214 1066T150 720Q148 525 210 375T396 140T706 54Q921 54 1052 168T1232 472L1320 452Q1266 233
1112 102T706 -30Z" />
<glyph unicode="&#xc8;" horiz-adv-x="1120" d="M574 1620L478 1890H566L662 1620H574ZM140 0V1440H1020V1356H224V762H900V678H224V84H1020V0H140Z" />
<glyph unicode="&#xc9;" horiz-adv-x="1120" d="M646 1620H558L654 1890H742L646 1620ZM140 0V1440H1020V1356H224V762H900V678H224V84H1020V0H140Z" />
<glyph unicode="&#xca;" horiz-adv-x="1120" d="M324 1620L524 1860H616L816 1620H716L570 1790L424 1620H324ZM140 0V1440H1020V1356H224V762H900V678H224V84H1020V0H140Z" />
<glyph unicode="&#xcb;" horiz-adv-x="1120" d="M670 1680V1800H790V1680H670ZM310 1680V1800H430V1680H310ZM140 0V1440H1020V1356H224V762H900V678H224V84H1020V0H140Z" />
<glyph unicode="&#xcc;" horiz-adv-x="404" d="M156 1620L60 1890H148L244 1620H156ZM160 0V1440H244V0H160Z" />
<glyph unicode="&#xcd;" horiz-adv-x="404" d="M248 1620H160L256 1890H344L248 1620ZM160 0V1440H244V0H160Z" />
<glyph unicode="&#xce;" horiz-adv-x="404" d="M-44 1620L156 1860H248L448 1620H348L202 1790L56 1620H-44ZM160 0V1440H244V0H160Z" />
<glyph unicode="&#xcf;" horiz-adv-x="404" d="M322 1680V1800H442V1680H322ZM-38 1680V1800H82V1680H-38ZM160 0V1440H244V0H160Z" />
<glyph unicode="&#xd0;" horiz-adv-x="1282" d="M20 678V762H620V678H20ZM118 0V1440H540Q566 1440 623 1439T732 1430Q891 1407 995 1308T1151 1057T1202 720Q1202 535 1151 383T996 132T732 10Q681 3 623 2T540 0H118ZM208 84H540Q588 84 636 87T718 96Q860
120 946 205T1072 423T1112 720Q1112 884 1073 1016T947 1234T718 1344Q685 1350 635 1353T540 1356H208V84Z" />
<glyph unicode="&#xd1;" horiz-adv-x="1324" d="M830 1620Q791 1620 754 1634T680 1668T611 1701T548 1716Q505 1716 495 1687T494 1630H422Q404 1699 442 1747T550 1796Q590 1796 628 1782T702 1748T771 1715T834 1700Q872 1700 886 1728T888 1790H960Q978 1723
940 1672T830 1620ZM140 0V1440H224L1100 150V1440H1184V0H1100L224 1292V0H140Z" />
<glyph unicode="&#xd2;" horiz-adv-x="1412" d="M670 1620L574 1890H662L758 1620H670ZM706 -30Q491 -30 348 66T132 331T60 720Q60 940 132 1109T347 1374T706 1470Q921 1470 1064 1374T1280 1109T1352 720Q1352 500 1280 331T1065 66T706 -30ZM706 54Q891 54
1014 139T1200 375T1262 720Q1262 915 1200 1065T1015 1301T706 1386Q521 1386 399 1301T214 1066T150 720Q148 525 210 375T396 140T706 54Z" />
<glyph unicode="&#xd3;" horiz-adv-x="1412" d="M772 1620H684L780 1890H868L772 1620ZM706 -30Q491 -30 348 66T132 331T60 720Q60 940 132 1109T347 1374T706 1470Q921 1470 1064 1374T1280 1109T1352 720Q1352 500 1280 331T1065 66T706 -30ZM706 54Q891 54
1014 139T1200 375T1262 720Q1262 915 1200 1065T1015 1301T706 1386Q521 1386 399 1301T214 1066T150 720Q148 525 210 375T396 140T706 54Z" />
<glyph unicode="&#xd4;" horiz-adv-x="1412" d="M460 1620L660 1860H752L952 1620H852L706 1790L560 1620H460ZM706 -30Q491 -30 348 66T132 331T60 720Q60 940 132 1109T347 1374T706 1470Q921 1470 1064 1374T1280 1109T1352 720Q1352 500 1280 331T1065 66T706
-30ZM706 54Q891 54 1014 139T1200 375T1262 720Q1262 915 1200 1065T1015 1301T706 1386Q521 1386 399 1301T214 1066T150 720Q148 525 210 375T396 140T706 54Z" />
<glyph unicode="&#xd5;" horiz-adv-x="1412" d="M706 -30Q491 -30 348 66T132 331T60 720Q60 940 132 1109T347 1374T706 1470Q921 1470 1064 1374T1280 1109T1352 720Q1352 500 1280 331T1065 66T706 -30ZM706 54Q891 54 1014 139T1200 375T1262 720Q1262 915
1200 1065T1015 1301T706 1386Q521 1386 399 1301T214 1066T150 720Q148 525 210 375T396 140T706 54ZM861 1620Q822 1620 785 1634T711 1668T642 1701T579 1716Q536 1716 526 1687T525 1630H453Q435 1699 473 1747T581 1796Q621 1796 659 1782T733 1748T802 1715T865
1700Q903 1700 917 1728T919 1790H991Q1009 1723 971 1672T861 1620Z" />
<glyph unicode="&#xd6;" horiz-adv-x="1412" d="M826 1680V1800H946V1680H826ZM466 1680V1800H586V1680H466ZM706 -30Q491 -30 348 66T132 331T60 720Q60 940 132 1109T347 1374T706 1470Q921 1470 1064 1374T1280 1109T1352 720Q1352 500 1280 331T1065 66T706
-30ZM706 54Q891 54 1014 139T1200 375T1262 720Q1262 915 1200 1065T1015 1301T706 1386Q521 1386 399 1301T214 1066T150 720Q148 525 210 375T396 140T706 54Z" />
<glyph unicode="&#xd7;" horiz-adv-x="950" d="M771 364L475 660L179 364L120 424L416 719L120 1015L179 1074L475 779L771 1074L830 1015L534 719L830 424L771 364Z" />
<glyph unicode="&#xd8;" horiz-adv-x="1412" d="M72 -26L10 32L210 246L232 270L1142 1242L1162 1262L1345 1459L1407 1404L1210 1190L1194 1174L286 202L260 174L72 -26ZM706 -30Q491 -30 348 66T132 331T60 720Q60 940 132 1109T347 1374T706 1470Q921 1470
1064 1374T1280 1109T1352 720Q1352 500 1280 331T1065 66T706 -30ZM706 54Q891 54 1014 139T1200 375T1262 720Q1262 915 1200 1065T1015 1301T706 1386Q521 1386 399 1301T214 1066T150 720Q148 525 210 375T396 140T706 54Z" />
<glyph unicode="&#xd9;" horiz-adv-x="1380" d="M669 1620L573 1890H661L757 1620H669ZM690 -30Q530 -30 406 37T211 225T140 510V1440H224V538Q224 405 269 312T385 161T537 77T690 50Q762 50 843 76T995 160T1111 311T1156 538V1440H1240V510Q1240 348 1169
227T974 38T690 -30Z" />
<glyph unicode="&#xda;" horiz-adv-x="1380" d="M711 1620H623L719 1890H807L711 1620ZM690 -30Q530 -30 406 37T211 225T140 510V1440H224V538Q224 405 269 312T385 161T537 77T690 50Q762 50 843 76T995 160T1111 311T1156 538V1440H1240V510Q1240 348 1169
227T974 38T690 -30Z" />
<glyph unicode="&#xdb;" horiz-adv-x="1380" d="M444 1620L644 1860H736L936 1620H836L690 1790L544 1620H444ZM690 -30Q530 -30 406 37T211 225T140 510V1440H224V538Q224 405 269 312T385 161T537 77T690 50Q762 50 843 76T995 160T1111 311T1156 538V1440H1240V510Q1240
348 1169 227T974 38T690 -30Z" />
<glyph unicode="&#xdc;" horiz-adv-x="1380" d="M810 1680V1800H930V1680H810ZM450 1680V1800H570V1680H450ZM690 -30Q530 -30 406 37T211 225T140 510V1440H224V538Q224 405 269 312T385 161T537 77T690 50Q762 50 843 76T995 160T1111 311T1156 538V1440H1240V510Q1240
348 1169 227T974 38T690 -30Z" />
<glyph unicode="&#xdd;" horiz-adv-x="1038" d="M535 1620H447L543 1890H631L535 1620ZM478 0V612L0 1440H96L520 708L942 1440H1038L562 612V0H478Z" />
<glyph unicode="&#xde;" horiz-adv-x="1142" d="M140 0V1440H224V1152H650Q729 1152 804 1122Q843 1107 879 1084T946 1032Q1011 972 1046 890T1082 720Q1082 639 1052 564T968 430Q910 364 825 326T650 288H224V0H140ZM224 372H650Q724 372 793 405T910 496Q949
543 971 601T992 720Q991 791 964 856T886 970Q841 1015 778 1041T650 1068H224V372Z" />
<glyph unicode="&#xdf;" horiz-adv-x="1150" d="M582 -28Q537 -28 491 -23T400 0V84Q448 68 489 63T582 58Q741 58 840 148T940 402Q940 548 825 636T520 728V812Q593 821 659 853T766 946T808 1100Q808 1235 732 1310T522 1386Q429 1386 354 1344T252 1212Q240
1173 236 1130T232 1042V0H140V1064Q140 1120 147 1169T170 1256Q198 1325 245 1373T361 1445T520 1470Q634 1470 719 1428T851 1303T898 1098Q898 983 845 897T690 784Q735 782 793 758T905 686T994 568T1030 402Q1030 209 916 91T582 -28Z" />
<glyph unicode="&#xe0;" horiz-adv-x="1084" d="M516 1260L420 1530H508L604 1260H516ZM454 -30Q328 -30 245 14T121 130T80 286Q80 381 121 443T230 542T374 594Q468 613 575 627T774 652T910 668L880 648Q885 839 811 932T548 1026Q412 1026 330 966T214 780L122
804Q158 954 269 1032T552 1110Q702 1110 802 1049T938 884Q952 844 958 787T964 676V0H886V296L926 294Q883 140 755 55T454 -30ZM450 54Q567 54 656 96T801 217T872 408Q880 464 880 528T880 620L924 586Q871 581 778 573T580 551T392 516Q343 504 291 478T204
405T168 284Q168 232 194 179T281 90T450 54Z" />
<glyph unicode="&#xe1;" horiz-adv-x="1084" d="M593 1260H505L601 1530H689L593 1260ZM454 -30Q328 -30 245 14T121 130T80 286Q80 381 121 443T230 542T374 594Q468 613 575 627T774 652T910 668L880 648Q885 839 811 932T548 1026Q412 1026 330 966T214 780L122
804Q158 954 269 1032T552 1110Q702 1110 802 1049T938 884Q952 844 958 787T964 676V0H886V296L926 294Q883 140 755 55T454 -30ZM450 54Q567 54 656 96T801 217T872 408Q880 464 880 528T880 620L924 586Q871 581 778 573T580 551T392 516Q343 504 291 478T204
405T168 284Q168 232 194 179T281 90T450 54Z" />
<glyph unicode="&#xe2;" horiz-adv-x="1084" d="M312 1260L512 1500H604L804 1260H704L558 1430L412 1260H312ZM454 -30Q328 -30 245 14T121 130T80 286Q80 381 121 443T230 542T374 594Q468 613 575 627T774 652T910 668L880 648Q885 839 811 932T548 1026Q412
1026 330 966T214 780L122 804Q158 954 269 1032T552 1110Q702 1110 802 1049T938 884Q952 844 958 787T964 676V0H886V296L926 294Q883 140 755 55T454 -30ZM450 54Q567 54 656 96T801 217T872 408Q880 464 880 528T880 620L924 586Q871 581 778 573T580 551T392
516Q343 504 291 478T204 405T168 284Q168 232 194 179T281 90T450 54Z" />
<glyph unicode="&#xe3;" horiz-adv-x="1084" d="M702 1260Q663 1260 626 1274T552 1308T483 1341T420 1356Q377 1356 367 1327T366 1270H294Q276 1339 314 1387T422 1436Q462 1436 500 1422T574 1388T643 1355T706 1340Q744 1340 758 1368T760 1430H832Q850 1363
812 1312T702 1260ZM454 -30Q328 -30 245 14T121 130T80 286Q80 381 121 443T230 542T374 594Q468 613 575 627T774 652T910 668L880 648Q885 839 811 932T548 1026Q412 1026 330 966T214 780L122 804Q158 954 269 1032T552 1110Q702 1110 802 1049T938 884Q952
844 958 787T964 676V0H886V296L926 294Q883 140 755 55T454 -30ZM450 54Q567 54 656 96T801 217T872 408Q880 464 880 528T880 620L924 586Q871 581 778 573T580 551T392 516Q343 504 291 478T204 405T168 284Q168 232 194 179T281 90T450 54Z" />
<glyph unicode="&#xe4;" horiz-adv-x="1084" d="M688 1320V1440H808V1320H688ZM328 1320V1440H448V1320H328ZM454 -30Q328 -30 245 14T121 130T80 286Q80 381 121 443T230 542T374 594Q468 613 575 627T774 652T910 668L880 648Q885 839 811 932T548 1026Q412
1026 330 966T214 780L122 804Q158 954 269 1032T552 1110Q702 1110 802 1049T938 884Q952 844 958 787T964 676V0H886V296L926 294Q883 140 755 55T454 -30ZM450 54Q567 54 656 96T801 217T872 408Q880 464 880 528T880 620L924 586Q871 581 778 573T580 551T392
516Q343 504 291 478T204 405T168 284Q168 232 194 179T281 90T450 54Z" />
<glyph unicode="&#xe5;" horiz-adv-x="1084" d="M557 1200Q504 1200 460 1226T390 1296T363 1394Q363 1447 389 1491T460 1561T557 1588Q611 1588 655 1562T725 1491T751 1394Q751 1340 725 1296T655 1226T557 1200ZM557 1284Q604 1284 635 1316T667 1394Q667
1440 636 1472T557 1504Q512 1504 480 1472T447 1394Q447 1349 479 1317T557 1284ZM454 -30Q328 -30 245 14T121 130T80 286Q80 381 121 443T230 542T374 594Q468 613 575 627T774 652T910 668L880 648Q885 839 811 932T548 1026Q412 1026 330 966T214 780L122
804Q158 954 269 1032T552 1110Q702 1110 802 1049T938 884Q952 844 958 787T964 676V0H886V296L926 294Q883 140 755 55T454 -30ZM450 54Q567 54 656 96T801 217T872 408Q880 464 880 528T880 620L924 586Q871 581 778 573T580 551T392 516Q343 504 291 478T204
405T168 284Q168 232 194 179T281 90T450 54Z" />
<glyph unicode="&#xe6;" horiz-adv-x="1892" d="M1348 -30Q1196 -30 1092 43T934 246T880 542Q880 711 934 839T1094 1038T1352 1110Q1506 1110 1608 1036T1761 828T1812 516H1726V544Q1720 766 1628 896T1348 1026Q1220 1026 1135 965T1007 794T964 540Q964 321
1061 188T1348 54Q1470 54 1566 114T1720 298L1786 258Q1745 164 1680 100T1531 3T1348 -30ZM450 54Q582 54 684 112T832 268Q859 325 869 390T879 504T880 560L884 520H534Q487 520 425 516T304 492T207 424T168 290Q168 175 244 115T450 54ZM462 -30Q284 -30
182 55T80 292Q80 384 114 442T204 533T321 580T440 597T534 600H882L880 588Q886 729 856 827T753 975T554 1026Q431 1026 337 974T210 794L122 822Q143 921 206 984T359 1079T552 1110Q716 1110 814 1038T946 834Q957 795 960 757T964 676L938 300Q899 172 823
100T651 -1T462 -30ZM930 516V600H1762V516H930Z" />
<glyph unicode="&#xe7;" horiz-adv-x="1078" d="M516 -478Q483 -478 453 -470T396 -450L424 -376Q474 -396 510 -396Q555 -396 579 -367T604 -302Q604 -251 562 -230T470 -192L546 14H630L572 -142Q623 -163 657 -202T692 -306Q692 -378 640 -428T516 -478ZM574
-30Q413 -30 304 42T139 242T80 540Q83 713 139 841T305 1039T574 1110Q724 1110 841 1039T1008 842L928 808Q883 912 790 969T574 1026Q438 1026 349 965T216 794T170 540Q173 320 274 187T574 54Q693 54 785 109T926 270L1008 234Q941 104 831 37T574 -30Z" />
<glyph unicode="&#xe8;" horiz-adv-x="1146" d="M552 1260L456 1530H544L640 1260H552ZM574 -30Q421 -30 311 39T140 236T80 540Q80 717 139 845T309 1041T574 1110Q729 1110 839 1040T1007 837T1066 516H976V544Q970 777 867 901T574 1026Q382 1026 276 899T170
540Q170 309 276 182T574 54Q708 54 809 117T970 298L1040 258Q974 120 853 45T574 -30ZM134 516V600H1014V516H134Z" />
<glyph unicode="&#xe9;" horiz-adv-x="1146" d="M639 1260H551L647 1530H735L639 1260ZM574 -30Q421 -30 311 39T140 236T80 540Q80 717 139 845T309 1041T574 1110Q729 1110 839 1040T1007 837T1066 516H976V544Q970 777 867 901T574 1026Q382 1026 276 899T170
540Q170 309 276 182T574 54Q708 54 809 117T970 298L1040 258Q974 120 853 45T574 -30ZM134 516V600H1014V516H134Z" />
<glyph unicode="&#xea;" horiz-adv-x="1146" d="M328 1260L528 1500H620L820 1260H720L574 1430L428 1260H328ZM574 -30Q421 -30 311 39T140 236T80 540Q80 717 139 845T309 1041T574 1110Q729 1110 839 1040T1007 837T1066 516H976V544Q970 777 867 901T574 1026Q382
1026 276 899T170 540Q170 309 276 182T574 54Q708 54 809 117T970 298L1040 258Q974 120 853 45T574 -30ZM134 516V600H1014V516H134Z" />
<glyph unicode="&#xeb;" horiz-adv-x="1146" d="M694 1320V1440H814V1320H694ZM334 1320V1440H454V1320H334ZM574 -30Q421 -30 311 39T140 236T80 540Q80 717 139 845T309 1041T574 1110Q729 1110 839 1040T1007 837T1066 516H976V544Q970 777 867 901T574 1026Q382
1026 276 899T170 540Q170 309 276 182T574 54Q708 54 809 117T970 298L1040 258Q974 120 853 45T574 -30ZM134 516V600H1014V516H134Z" />
<glyph unicode="&#xec;" horiz-adv-x="404" d="M156 1260L60 1530H148L244 1260H156ZM160 0V1080H244V0H160Z" />
<glyph unicode="&#xed;" horiz-adv-x="404" d="M248 1260H160L256 1530H344L248 1260ZM160 0V1080H244V0H160Z" />
<glyph unicode="&#xee;" horiz-adv-x="404" d="M-44 1260L156 1500H248L448 1260H348L202 1430L56 1260H-44ZM160 0V1080H244V0H160Z" />
<glyph unicode="&#xef;" horiz-adv-x="404" d="M322 1320V1440H442V1320H322ZM-38 1320V1440H82V1320H-38ZM160 0V1080H244V0H160Z" />
<glyph unicode="&#xf0;" horiz-adv-x="1146" d="M574 -30Q418 -32 309 34T141 221T80 504Q82 668 141 788T310 974T574 1038Q691 1040 799 993T970 850Q952 1010 889 1125T719 1307T460 1384L470 1466Q646 1456 775 1374T976 1144Q1015 1069 1034 986T1060 789T1066
506Q1066 343 1007 222T837 34T574 -30ZM574 54Q772 54 874 176T976 506Q976 715 871 836T574 954Q378 957 274 834T170 504Q170 293 274 174T574 54ZM606 1158L540 1210L818 1564L884 1512L606 1158Z" />
<glyph unicode="&#xf1;" horiz-adv-x="1146" d="M712 1260Q673 1260 636 1274T562 1308T493 1341T430 1356Q387 1356 377 1327T376 1270H304Q286 1339 324 1387T432 1436Q472 1436 510 1422T584 1388T653 1355T716 1340Q754 1340 768 1368T770 1430H842Q860 1363
822 1312T712 1260ZM942 0V572Q942 688 919 772T849 912T738 995T588 1022Q489 1022 420 988T307 893T244 755T224 590L146 588Q146 773 207 886T368 1052T588 1104Q670 1104 738 1081T860 1015T951 908T1007 765T1026 588V0H942ZM140 0V1080H218V860H224V0H140Z"
/>
<glyph unicode="&#xf2;" horiz-adv-x="1148" d="M523 1260L427 1530H515L611 1260H523ZM574 -30Q414 -30 304 43T137 245T80 542Q80 712 138 840T306 1039T574 1110Q735 1110 845 1038T1011 837T1068 542Q1068 371 1011 243T844 42T574 -30ZM574 54Q778 54 878
189T978 542Q978 763 878 894T574 1026Q437 1026 348 964T214 793T170 542Q170 322 272 188T574 54Z" />
<glyph unicode="&#xf3;" horiz-adv-x="1148" d="M615 1260H527L623 1530H711L615 1260ZM574 -30Q414 -30 304 43T137 245T80 542Q80 712 138 840T306 1039T574 1110Q735 1110 845 1038T1011 837T1068 542Q1068 371 1011 243T844 42T574 -30ZM574 54Q778 54 878
189T978 542Q978 763 878 894T574 1026Q437 1026 348 964T214 793T170 542Q170 322 272 188T574 54Z" />
<glyph unicode="&#xf4;" horiz-adv-x="1148" d="M328 1260L528 1500H620L820 1260H720L574 1430L428 1260H328ZM574 -30Q414 -30 304 43T137 245T80 542Q80 712 138 840T306 1039T574 1110Q735 1110 845 1038T1011 837T1068 542Q1068 371 1011 243T844 42T574
-30ZM574 54Q778 54 878 189T978 542Q978 763 878 894T574 1026Q437 1026 348 964T214 793T170 542Q170 322 272 188T574 54Z" />
<glyph unicode="&#xf5;" horiz-adv-x="1148" d="M714 1260Q675 1260 638 1274T564 1308T495 1341T432 1356Q389 1356 379 1327T378 1270H306Q288 1339 326 1387T434 1436Q474 1436 512 1422T586 1388T655 1355T718 1340Q756 1340 770 1368T772 1430H844Q862 1363
824 1312T714 1260ZM574 -30Q414 -30 304 43T137 245T80 542Q80 712 138 840T306 1039T574 1110Q735 1110 845 1038T1011 837T1068 542Q1068 371 1011 243T844 42T574 -30ZM574 54Q778 54 878 189T978 542Q978 763 878 894T574 1026Q437 1026 348 964T214 793T170
542Q170 322 272 188T574 54Z" />
<glyph unicode="&#xf6;" horiz-adv-x="1148" d="M694 1320V1440H814V1320H694ZM334 1320V1440H454V1320H334ZM574 -30Q414 -30 304 43T137 245T80 542Q80 712 138 840T306 1039T574 1110Q735 1110 845 1038T1011 837T1068 542Q1068 371 1011 243T844 42T574 -30ZM574
54Q778 54 878 189T978 542Q978 763 878 894T574 1026Q437 1026 348 964T214 793T170 542Q170 322 272 188T574 54Z" />
<glyph unicode="&#xf7;" horiz-adv-x="1080" d="M120 678V762H960V678H120ZM480 902V1022H600V902H480ZM480 418V538H600V418H480Z" />
<glyph unicode="&#xf8;" horiz-adv-x="1148" d="M92 0L32 60L196 224L218 246L894 920L920 946L1056 1080L1116 1022L956 864L934 842L272 180L250 158L92 0ZM574 -30Q414 -30 304 43T137 245T80 542Q80 712 138 840T306 1039T574 1110Q735 1110 845 1038T1011
837T1068 542Q1068 371 1011 243T844 42T574 -30ZM574 54Q778 54 878 189T978 542Q978 763 878 894T574 1026Q437 1026 348 964T214 793T170 542Q170 322 272 188T574 54Z" />
<glyph unicode="&#xf9;" horiz-adv-x="1146" d="M547 1260L451 1530H539L635 1260H547ZM558 -24Q476 -24 408 -1T286 65T195 172T139 315T120 492V1080H204V508Q204 393 227 308T297 168T408 85T558 58Q657 58 726 92T839 187T902 325T922 490L1000 492Q1000 307
939 194T778 28T558 -24ZM928 0V220H922V1080H1006V0H928Z" />
<glyph unicode="&#xfa;" horiz-adv-x="1146" d="M604 1260H516L612 1530H700L604 1260ZM558 -24Q476 -24 408 -1T286 65T195 172T139 315T120 492V1080H204V508Q204 393 227 308T297 168T408 85T558 58Q657 58 726 92T839 187T902 325T922 490L1000 492Q1000 307
939 194T778 28T558 -24ZM928 0V220H922V1080H1006V0H928Z" />
<glyph unicode="&#xfb;" horiz-adv-x="1146" d="M316 1260L516 1500H608L808 1260H708L562 1430L416 1260H316ZM558 -24Q476 -24 408 -1T286 65T195 172T139 315T120 492V1080H204V508Q204 393 227 308T297 168T408 85T558 58Q657 58 726 92T839 187T902 325T922
490L1000 492Q1000 307 939 194T778 28T558 -24ZM928 0V220H922V1080H1006V0H928Z" />
<glyph unicode="&#xfc;" horiz-adv-x="1146" d="M682 1320V1440H802V1320H682ZM322 1320V1440H442V1320H322ZM558 -24Q476 -24 408 -1T286 65T195 172T139 315T120 492V1080H204V508Q204 393 227 308T297 168T408 85T558 58Q657 58 726 92T839 187T902 325T922
490L1000 492Q1000 307 939 194T778 28T558 -24ZM928 0V220H922V1080H1006V0H928Z" />
<glyph unicode="&#xfd;" horiz-adv-x="1012" d="M541 1260H453L549 1530H637L541 1260ZM302 -480L512 84L514 -84L40 1080H132L556 32H492L872 1080H962L396 -480H302Z" />
<glyph unicode="&#xfe;" horiz-adv-x="1152" d="M140 782V1440H224V782H140ZM602 -30Q459 -30 359 46T207 251T154 542Q154 706 207 834T363 1036T618 1110Q763 1110 864 1035T1019 830T1072 542Q1072 380 1018 251T860 46T602 -30ZM140 -480V1080H218V230H224V-480H140ZM602
54Q727 54 811 118T939 292T982 542Q982 680 941 789T815 962T602 1026Q476 1026 391 964T262 793T218 542Q218 403 261 293T389 118T602 54Z" />
<glyph unicode="&#xff;" horiz-adv-x="1012" d="M634 1320V1440H754V1320H634ZM274 1320V1440H394V1320H274ZM302 -480L512 84L514 -84L40 1080H132L556 32H492L872 1080H962L396 -480H302Z" />
<glyph unicode="&#x2013;" horiz-adv-x="1080" d="M120 588V672H960V588H120Z" />
<glyph unicode="&#x2014;" horiz-adv-x="1560" d="M120 588V672H1440V588H120Z" />
<glyph unicode="&#x2018;" horiz-adv-x="360" d="M240 1082Q192 1070 156 1102T120 1200V1440H240V1260H174Q174 1228 174 1199T187 1151T234 1134L240 1082Z" />
<glyph unicode="&#x2019;" horiz-adv-x="360" d="M120 1082L126 1134Q161 1132 173 1150T185 1198T186 1260H120V1440H240V1200Q240 1134 204 1102T120 1082Z" />
<glyph unicode="&#x201a;" horiz-adv-x="480" d="M120 -178L126 -126Q161 -128 173 -110T185 -62T186 0H120V180H240V-60Q240 -126 204 -158T120 -178Z" />
<glyph unicode="&#x201c;" horiz-adv-x="640" d="M480 1456L474 1404Q439 1406 427 1388T415 1340T414 1278H480V1098H360V1338Q360 1404 396 1436T480 1456ZM280 1456L274 1404Q239 1406 227 1388T215 1340T214 1278H280V1098H160V1338Q160 1404 196 1436T280 1456Z" />
<glyph unicode="&#x201d;" horiz-adv-x="640" d="M160 1102L166 1154Q201 1152 213 1170T225 1218T226 1280H160V1460H280V1220Q280 1154 244 1122T160 1102ZM360 1102L366 1154Q401 1152 413 1170T425 1218T426 1280H360V1460H480V1220Q480 1154 444 1122T360 1102Z" />
<glyph unicode="&#x201e;" horiz-adv-x="640" d="M160 -178L166 -126Q201 -128 213 -110T225 -62T226 0H160V180H280V-60Q280 -126 244 -158T160 -178ZM360 -178L366 -126Q401 -128 413 -110T425 -62T426 0H360V180H480V-60Q480 -126 444 -158T360 -178Z" />
<glyph unicode="&#x2022;" horiz-adv-x="1240" d="M624 430Q567 430 521 456T448 527T420 630Q420 687 447 732T521 804T624 830Q677 830 721 804T793 733T820 630Q820 573 793 528T722 456T624 430Z" />
<glyph unicode="&#x2039;" horiz-adv-x="1198" d="M742 168L280 630L742 1092L798 1038L390 630L798 222L742 168Z" />
<glyph unicode="&#x203a;" horiz-adv-x="1198" d="M456 168L400 222L808 630L400 1038L456 1092L918 630L456 168Z" />
</font>
</defs>
</svg>
